#TITLE:Steal Away;
#SUBTITLE:;
#ARTIST:Park Ji Yoon;
#TITLETRANSLIT:Steal Away;
#SUBTITLETRANSLIT:;
#ARTISTTRANSLIT:Park Ji Yoon;
#CREDIT:;
#BANNER:Steal Away-bn.png;
#BACKGROUND:Steal Away-bg.png;
#LYRICSPATH:;
#CDTITLE:pm4cd.png;
#MUSIC:Steal Away.mp3;
#OFFSET:0.060;
#SAMPLESTART:46.970;
#SAMPLELENGTH:20.000;
#SELECTABLE:YES;
#BPMS:0.000=100.520;
#STOPS:;
#BGCHANGES:;
// cache tags:
#FIRSTBEAT:16.000;
#LASTBEAT:396.000;
#SONGFILENAME:Songs/Music V.I.P ^_^/Steal Away/Steal Away.sm;
#HASMUSIC:1;
#HASBANNER:1;
#MUSICLENGTH:238.714;
// end cache tags

//---------------dance-single - ----------------
#NOTES:
     dance-single:
     :
     Hard:
     11:
     1.000,1.000,1.000,0.092,0.649,1028.000,530.000,22.000,0.000,148.000:
0000
0000
0000
0000
,
0000
0000
0000
0000
,
0000
0000
0000
0000
,
0000
0000
0000
0000
,
1001
0000
0100
0000
0011
0000
0001
1010
0101
0000
0001
0000
1010
0000
1000
0010
,
1100
0000
0001
0000
0110
0000
1000
0101
1010
0000
0010
0000
0110
0000
0100
0000
,
1100
0000
0001
0000
1001
0000
0100
0011
1100
0000
0001
0000
0110
0000
1000
0101
,
0011
0000
1000
0000
1001
0000
0001
0110
1100
0000
1010
0000
1010
0000
0100
0000
,
1111
0000
1000
0000
0101
0000
0010
0101
1100
0000
0001
0000
1010
0000
1000
0110
,
0101
0000
0001
0000
1010
0000
0100
0011
1001
0000
0001
0000
0110
0000
0100
0000
,
1100
0000
1000
0000
0101
0000
0010
1100
1001
0000
1000
0000
0110
0000
0001
1010
,
0011
0000
0100
0000
1010
0000
1000
0110
0011
0000
1000
0000
1101
0000
0010
0000
,
1110
0000
0001
0000
0110
0000
0001
1010
0101
0000
0010
0000
1001
0000
0100
0000
,
0110
0000
0001
0000
1010
0000
0100
1001
0011
0000
0100
0000
1001
0000
0010
0000
,
1100
0000
0100
0000
1001
0000
0010
1100
0011
0000
0001
0000
1010
0000
0010
0101
,
0011
0000
0001
0000
0110
0000
1000
0101
1010
0000
0011
0000
1110
0000
1000
0000
,
2111
0000
0001
0000
0110
0000
0011
0000
0101
0000
0010
0000
0011
0000
0100
0011
,
3210
0000
0001
0000
1001
0000
0011
0000
1010
0000
1000
0000
0011
0000
0001
1001
,
1320
0000
0001
0000
0101
0000
1000
0000
1000
0000
0100
0000
1100
0000
1000
0101
,
1031
0000
1010
0000
1010
0000
0101
1010
0101
0000
1001
0110
1001
0000
0110
0000
,
1111
0000
0001
0000
1010
0000
1001
0101
0110
0000
0010
0000
0101
0000
0001
0000
,
1010
0000
1000
0000
1001
0000
0101
1010
0011
0000
0100
0000
1001
0000
0010
0000
,
1100
0000
0001
0000
1010
0000
0110
1001
0011
0000
0001
0000
0110
0000
1000
0011
,
1100
0000
0100
0000
0101
0000
0011
1100
0110
0000
0101
0000
0101
0000
1010
0000
,
1111
0000
1000
0000
1100
0000
0110
1100
0101
0000
0001
0000
1001
0000
0001
0000
,
1010
0000
0100
0000
0011
0000
1100
0110
0101
0000
0001
0000
1001
0000
0010
0000
,
0110
0000
1000
0000
1100
0000
0011
0110
1100
0000
1000
0000
1010
0000
0010
0101
,
1010
0000
0010
0000
1100
0000
0011
1100
1001
0010
0001
0010
0101
0010
0001
0010
,
1101
0000
0001
0010
1100
0010
1000
0101
1010
0001
0100
0010
1001
0100
0001
1000
,
0011
0100
1000
0010
0100
0001
0010
0101
1010
0100
0010
0100
1001
0100
0010
0100
,
1010
0001
0100
0001
1100
0010
0100
1010
0101
0010
1000
0100
0011
1000
0100
1010
,
0101
1000
0001
0100
1001
0010
0001
1010
0101
0010
0100
1000
0110
0000
0001
0000
,
1110
0001
0100
0010
1100
0010
0001
0110
1001
0010
0100
0001
0110
1000
0100
0010
,
0101
0010
1000
0001
1100
0001
0010
1100
0011
0000
0100
0010
1001
0100
0010
1000
,
0011
0100
1000
0001
0110
0001
0010
1100
0011
0100
0010
0001
1010
0100
0001
1100
,
0011
1000
0001
0010
0101
0010
0001
1100
0011
0100
0001
1100
0012
0000
0000
0000
,
2113
0101
0001
0110
,
3002
0110
1000
1100
,
0203
1010
0001
1001
,
2300
0000
0000
0000
0011
0000
0000
0000
0010
0000
0100
0001
0110
0000
0100
0000
,
3111
0000
0010
0000
1100
0000
0001
0110
1100
0000
0100
0000
1001
0000
0100
0000
,
1010
0000
0010
0000
0011
0000
1000
0110
0011
0000
0100
0000
0101
0000
0001
0000
,
0110
0000
1000
0000
1001
0000
0001
1010
0011
0000
0100
0000
1001
0000
1000
0101
,
0011
0000
0100
0000
1001
0000
0001
1010
1100
0000
1010
0000
0111
0000
0011
0000
,
1211
0000
1000
0000
0011
0000
1010
0000
1001
0000
0001
0000
1010
0000
0010
1001
,
0312
0000
0010
0000
1100
0000
0110
0000
1010
0000
0100
0000
0110
0000
0010
1100
,
2013
0000
0001
0000
0101
0000
0010
0000
0010
0000
0100
0000
0110
0000
0001
0110
,
3101
0000
0110
0000
0110
0000
1001
0110
1001
0000
1100
0011
1100
0000
0011
0000
,
1111
0000
1000
0000
0110
0000
1001
0110
1100
0000
0100
0000
0101
0000
1000
0000
,
0110
0000
0001
0000
0101
0000
1100
0110
0101
0000
0010
0000
1100
0000
0001
0000
,
1010
0000
0100
0000
0011
0000
1100
1001
1010
0000
0100
0000
0011
0000
0100
1010
,
1001
0000
0010
0000
1100
0000
0101
0110
1100
0000
1001
0000
1001
0000
0110
0000
,
1111
0000
0010
0000
1001
0000
0101
0110
1001
0000
0100
0000
0011
0000
0100
0000
,
1001
0000
1000
0000
0101
0000
0011
1100
1001
0000
0010
0000
1010
0000
1000
0000
,
0011
0000
0100
0000
1001
0000
1100
0101
1001
0000
0100
0000
0011
0000
0100
0011
,
1001
0000
0100
0000
0101
0000
1001
0110
0011
0100
1000
0101
1010
0001
0010
0100
,
1011
0100
0010
0001
1010
0100
0010
0101
1010
0100
0010
0001
1100
0010
1000
0010
,
0101
0010
0001
0100
1010
0001
0010
1100
0011
0100
0010
1000
0101
0010
0001
0010
,
1100
0000
0001
0010
0101
0010
0100
1010
0101
0010
0001
1000
0110
0001
1000
0101
,
0011
0100
0001
0010
0101
0010
0001
1100
0011
0000
1010
0000
1010
0000
0101
0000
,
1101
0010
0001
0100
0011
0100
0001
1010
0101
0010
1000
0010
1100
0010
0100
0001
,
1010
0100
1000
0010
1100
0010
0100
1010
0101
0010
0100
0010
1100
0010
1000
0100
,
1001
0010
0001
0010
1100
0010
1000
0101
1010
0100
1000
0001
0110
1000
0100
1010
,
0101
0010
1000
0100
1010
0100
0010
0001
1100
0011
0100
0011
1100
0010
0001
0000
,
1211
0000
0000
0000
0001
0000
1010
0000
1001
0000
0000
0000
1000
0000
0000
1010
,
1302
0000
0000
0000
0010
0000
1100
0000
0110
0000
0000
0000
1000
0000
0000
1010
,
2113
0000
0100
0000
0100
0000
0010
0000
0010
0000
0001
0000
0001
0000
0010
0101
,
3011
0000
1100
0000
1100
0000
0011
1100
0011
0000
0110
1001
0110
0000
1001
0000
,
1111
0000
0001
0000
1010
0000
1001
0101
0110
0000
0010
0000
0101
0000
0001
0000
,
1010
0000
1000
0000
1001
0000
0101
1010
0011
0000
0100
0000
1001
0000
0010
0000
,
1100
0000
0001
0000
1010
0000
0110
1001
0011
0000
0001
0000
0110
0000
1000
0011
,
1100
0000
0100
0000
0101
0000
0011
1100
0110
0000
0101
0000
0101
0000
1010
0000
,
1111
0000
0001
0000
1001
0000
0011
1100
1001
0000
0010
0000
1010
0000
0100
0000
,
0011
0000
0100
0000
0110
0000
0101
1010
1001
0000
0100
0000
0101
0000
1000
0000
,
0011
0000
0100
0000
1001
0000
1001
0110
1100
0000
0010
0000
0101
0000
1000
0110
,
1001
0000
0001
0000
1010
0000
0110
0011
1100
0000
1001
0110
1001
0000
1001
0000
,
0112
1100
0010
1010
,
0203
0011
1000
1001
,
2300
0101
0010
0110
,
3002
0000
0000
0000
0110
0000
0000
0000
1000
0000
0100
0010
1100
0000
1000
0000
,
1113
0000
1000
0000
0011
0000
1100
0101
0111
0000
1000
0000
0101
0000
0010
0000
,
0011
0000
0100
0000
1100
0000
1100
0011
1101
0000
0010
0000
0101
0000
0010
0000
,
1100
0000
0010
0000
1001
0000
1001
1010
0111
0000
1000
0000
0011
0000
0100
1001
,
0111
0000
0100
0000
0101
0000
1001
0110
1011
0000
1001
0000
1101
0000
1100
0000
,
1001
0100
1000
0100
1001
0010
0100
1010
1101
0010
0100
1000
0101
0010
1000
0001
,
1110
0001
0100
0010
1001
0100
0001
1100
0111
1000
0100
0010
1100
0001
0010
0100
,
1010
0100
0010
0100
1001
0100
0010
0101
1110
0001
1000
0010
1100
0001
1000
0011
,
1101
0010
0001
0010
0101
0010
0100
0011
1101
0010
0001
0110
1110
0001
0100
0010
,
1101
0010
0100
1000
1110
0001
0100
1011
1101
0010
0100
1000
1011
0100
0010
0001
,
0111
1000
0100
0001
1110
0001
0100
1011
1110
0001
0010
1000
0111
1000
0010
0001
,
1011
0000
0010
0001
1101
0010
0100
1011
0111
1000
0100
0010
1011
0100
0001
1110
,
1011
0100
0010
0001
1110
0001
0010
1101
1011
0100
0010
1101
0111
1000
0100
0010
,
1111
0100
0001
1000
0111
1000
0010
1101
1011
0100
0010
1000
0111
1000
0010
0001
,
1110
0001
0010
0100
1011
0100
1000
0111
1101
0010
0100
1000
0111
1000
0100
0010
,
1101
0010
0100
1000
1011
0100
1000
0111
1110
0001
0010
0100
1011
0100
0010
1101
,
1011
0100
0001
0010
1101
0010
0001
1101
1110
0001
0100
1011
1101
0010
0100
0001
,
1111
1000
0100
0010
1101
0010
0001
1110
1011
0100
0010
0001
1101
0010
1000
0100
,
0111
1000
0100
0010
1101
0010
0100
1011
1101
0010
0100
0010
1101
0010
0100
1000
,
2222
0000
0000
0000
,
3333
0000
0000
0000
;

//---------------dance-single - ----------------
#NOTES:
     dance-single:
     :
     Medium:
     1:
     0.000,0.000,0.000,0.000,0.000,0.000,0.000,0.000,0.000,0.000:
0000
0000
0000
0000
;
